Jump to content

I'm Groot

VIP
  • Content Count

    1,005
  • Joined

  • Days Won

    5

I'm Groot last won the day on March 5

I'm Groot had the most liked content!

About I'm Groot

  • Rank
    Real Groot

Recent Profile Visitors

18,993 profile views
  1. WE ARE NOW AVAILABLE ON TELEGRAM CHANNEL JOIN FOR LATEST UPDATES click in the image to view full size SCREENSHOTS WE ALSO AVAILABLE IN ANDROID APP! INSTALL NOW TO GET INSTANT UPDATES & BYPASS RESTRICTIONS www.TamilBlasters.cfd - Ms Marvel (2022) S01E02 [1080p HD AVC - x264 - UNTOUCHED - [Tamil + Telugu + Hindi + Malayalam + English] - DDP5.1(192Kbps) 1.4GB - ESub].mkv.torren Magent Link Please Seed Back After Download
  2. WE ARE NOW AVAILABLE ON TELEGRAM CHANNEL JOIN FOR LATEST UPDATES click in the image to view full size SCREENSHOTS WE ALSO AVAILABLE IN ANDROID APP! INSTALL NOW TO GET INSTANT UPDATES & BYPASS RESTRICTIONS www.TamilBlasters.cfd - Ms Marvel (2022) S01E02 [720p HD HEVC - x265 - UNTOUCHED - [Tam + Tel + Hin + Mal + Eng] - AAC2.0 - 400MB - ESub].mkv.torren Magnet Link Please Seed Back After Download
  3. General Complete name : www.TamilBlasters.wiki - Nanban (2012)[4k 18GB seyons Bluray - Tamil].mkv Format : Matroska Format version : Version 4 File size : 17.8 GiB Duration : 3 h 0 min Overall bit rate : 14.2 Mb/s Movie name : @STR Encoded date : UTC 2022-04-20 14:35:45 Writing application : mkvmerge v62.0.0 ('Apollo') 64-bit Writing library : libebml v1.4.2 + libmatroska v1.6.4 / Lavf58.29.100 Video ID : 1 Format : VP9 Codec ID : V_VP9 Duration : 3 h 0 min Bit rate : 14.1 Mb/s Width : 3 840 pixels Height : 2 160 pixels Display aspect ratio : 16:9 Frame rate mode : Constant Frame rate : 25.000 FPS Color space : YUV Bits/(Pixel*Frame) : 0.068 Stream size : 17.7 GiB (99%) Title : www.TamilBlasters.wiki Default : Yes Forced : No Color range : Limited Color primaries : BT.709 Transfer characteristics : BT.709 Matrix coefficients : BT.709 Audio ID : 2 Format : Opus Codec ID : A_OPUS Duration : 3 h 0 min Bit rate : 128 kb/s Channel(s) : 2 channels Channel layout : L R Sampling rate : 48.0 kHz Frame rate : 50.000 FPS (960 SPF) Bit depth : 32 bits Compression mode : Lossy Stream size : 165 MiB (1%) Title : www.TamilBlasters.wiki Default : Yes Forced : No
  4. WE ARE NOW AVAILABLE ON THE TELEGRAM CHANNEL TO JOIN FOR THE LATEST UPDATES WE ARE ALSO AVAILABLE IN ANDROID APP! INSTALL NOW TO GET INSTANT UPDATES & BYPASS RESTRICTIONS Tidal Dolby Atmos (DDP5.1 + Dolby Atmos - 768Kbps) www.TamilBlasters.wiki - Why (The Musical) (2022) Complete Album Original HQ [Dolby Digital Plus with Dolby Atmos(768Kbps), with 5.1 bed] - A. R. Rahman Musical - 250MB
  5. WE ARE NOW AVAILABLE ON THE TELEGRAM CHANNEL TO JOIN FOR THE LATEST UPDATES WE ARE ALSO AVAILABLE IN ANDROID APP! INSTALL NOW TO GET INSTANT UPDATES & BYPASS RESTRICTIONS Tidal Dolby Atmos (DDP5.1 + Dolby Atmos - 768Kbps) www.TamilBlasters.buzz - Squid Game (Lets Play) (2021) English Complete Album Original HQ Dolby Atmos (DDP5.1 + Dolby Atmos - 768Kbps) with Bed - Various Artists Musical - 60MB
×
×
  • Create New...